<?xml version="1.0" standalone="no"?>
<!DOCTYPE svg PUBLIC "-//W3C//DTD SVG 1.1//EN" "http://www.w3.org/Graphics/SVG/1.1/DTD/svg11.dtd" >
<svg xmlns="http://www.w3.org/2000/svg" xmlns:xlink="http://www.w3.org/1999/xlink" version="1.1">
<metadata>
Created by FontForge 20170910 at Sun Feb 25 04:22:31 2018
 By Jimmy Wärting
</metadata>
<defs>
<font id="font3933" horiz-adv-x="1024" vert-adv-y="1024" >
  <font-face 
    font-family="s2s"
    font-weight="400"
    font-stretch="normal"
    units-per-em="1024"
    panose-1="2 0 5 9 0 0 0 0 0 0"
    ascent="819"
    descent="-205"
    x-height="1000.08"
    cap-height="1020.34"
    bbox="-5.28809 -42.3434 1013.11 1025.47"
    underline-thickness="0"
    underline-position="0"
    unicode-range="U+0041-0079"
  />
<missing-glyph vert-adv-y="90" 
d="M917.066 811.725l-126.598 -597.029c-9.55045 -42.1368 -34.4582 -52.624 -69.8528 -32.773l-192.892 142.141l-93.0752 -89.517c-10.3 -10.3 -18.9147 -18.9146 -38.7659 -18.9146l13.8582 196.45l357.506 323.048c15.5434 13.8583 -3.37059 21.5365 -24.1582 7.67824
l-441.967 -278.289l-190.271 59.5531c-41.3876 12.9218 -42.1365 41.3876 8.61473 61.2386l744.227 286.716c34.4589 12.922 64.6101 -7.67822 53.3736 -60.3022z" />
    <glyph glyph-name=".notdef" vert-adv-y="90" 
d="M917.066 811.725l-126.598 -597.029c-9.55045 -42.1368 -34.4582 -52.624 -69.8528 -32.773l-192.892 142.141l-93.0752 -89.517c-10.3 -10.3 -18.9147 -18.9146 -38.7659 -18.9146l13.8582 196.45l357.506 323.048c15.5434 13.8583 -3.37059 21.5365 -24.1582 7.67824
l-441.967 -278.289l-190.271 59.5531c-41.3876 12.9218 -42.1365 41.3876 8.61473 61.2386l744.227 286.716c34.4589 12.922 64.6101 -7.67822 53.3736 -60.3022z" />
    <glyph glyph-name="telegram" unicode="a" vert-adv-y="90" 
d="M998.606 869.293l-151.928 -716.482c-11.462 -50.5674 -41.3524 -63.1529 -83.8291 -39.3302l-231.486 170.58l-111.697 -107.427c-12.3608 -12.3608 -22.6995 -22.699 -46.5223 -22.699l16.6307 235.756l429.035 387.683
c18.654 16.631 -4.04425 25.8455 -28.9915 9.2145l-530.395 -333.969l-228.339 71.4684c-49.6689 15.5072 -50.5677 49.6683 10.3375 73.4911l893.131 344.082c41.3535 15.5074 77.5371 -9.21445 64.0529 -72.3674z" />
    <glyph glyph-name="telegram_b" unicode="b" vert-adv-y="90" 
d="M107.072 1024.18c-59.1628 0 -107.161 -47.9995 -107.161 -107.162v-785.854c0 -59.1623 47.9978 -107.162 107.161 -107.162h785.855c59.1628 0 107.162 47.9997 107.162 107.162v785.854c0 59.1624 -47.999 107.162 -107.162 107.162h-785.855zM825.649 823.673
c21.8241 0.27935 37.3173 -18.1305 29.5421 -54.5448l-107.816 -508.461c-8.13358 -35.8857 -29.3457 -44.8173 -59.4903 -27.911l-164.279 121.054l-79.2676 -76.2379c-8.7718 -8.77238 -16.1076 -16.1074 -33.013 -16.1074l11.8033 167.305l304.472 275.126
c13.2381 11.8023 -2.87313 18.343 -20.5762 6.54068l-376.401 -237.007l-162.047 50.7206c-35.2479 11.005 -35.8849 35.2445 7.3382 52.1508l633.823 244.184c5.50216 2.06334 10.8745 3.12293 15.9111 3.18746z" />
    <glyph glyph-name="telegram_c" unicode="c" vert-adv-y="90" 
d="M500 1023.14c-275.906 0 -499.573 -223.666 -499.573 -499.572c0 -132.495 52.6294 -259.565 146.318 -353.253c93.6885 -93.6884 220.76 -146.318 353.255 -146.318c132.495 0 259.56 52.6292 353.248 146.318c93.6885 93.6882 146.325 220.757 146.325 353.253
c0 132.495 -52.6366 259.567 -146.325 353.255c-93.6873 93.6883 -220.752 146.318 -353.248 146.318zM739.032 789.888c19.4826 0.24942 33.3147 -16.187 26.3754 -48.6952l-96.2541 -453.92c-7.25968 -32.0365 -26.1968 -40.0102 -53.1082 -24.9173l-146.655 108.07
l-70.7649 -68.0618c-7.8314 -7.83104 -14.3824 -14.3791 -29.4746 -14.3791l10.5352 149.361l271.812 245.613c11.818 10.5365 -2.56202 16.3754 -18.3678 5.83906l-336.027 -211.583l-144.663 45.2776c-31.4673 9.82456 -32.0367 31.4669 6.5486 46.5595l565.839 217.99
c4.91204 1.84214 9.70855 2.78989 14.2049 2.84765z" />
    <glyph glyph-name="twitter" unicode="d" vert-adv-y="90" 
d="M898.09 635.122c0.633 -8.903 0.633 -17.8059 0.633 -26.7088c-1.13687e-13 -271.539 -206.675 -584.413 -584.414 -584.413c-116.374 0 -224.481 33.7037 -315.416 92.2086c16.534 -1.9075 32.43 -2.5437 49.602 -2.5437c96.024 0 184.417 32.4324 255.005 87.7575
c-90.302 1.908 -165.976 61.0486 -192.049 142.447c12.718 -1.9076 25.437 -3.1794 38.792 -3.1794c18.441 0 36.884 2.5437 54.053 6.9949c-94.117 19.0777 -164.704 101.748 -164.704 201.588v2.5437c27.344 -15.2622 59.14 -24.801 92.844 -26.0728
c-55.325 36.8835 -91.573 99.8399 -91.573 171.063c0 38.1554 10.175 73.1312 27.981 103.655c101.112 -124.641 253.097 -206.039 423.525 -214.942c-3.18 15.2622 -5.088 31.1603 -5.088 47.0584c0 113.194 91.574 205.403 205.404 205.403
c59.141 0 112.559 -24.801 150.077 -64.8642c46.423 8.9029 90.938 26.0728 130.366 49.602c-15.263 -47.6943 -47.695 -87.7574 -90.303 -113.194c41.336 4.4514 81.398 15.898 118.282 31.7962c-27.98 -40.6991 -62.957 -76.9468 -103.02 -106.199z" />
    <glyph glyph-name="twitter_b" unicode="e" vert-adv-y="90" 
d="M892.478 1023.52h-784.956c-59.096 0 -107.04 -47.9447 -107.04 -107.04v-784.957c0 -59.0948 47.944 -107.04 107.04 -107.04h784.956c59.096 0 107.04 47.9448 107.04 107.04v784.957c0 59.0948 -47.944 107.04 -107.04 107.04zM783.432 669.395
c0.447 -6.2441 0.447 -12.711 0.447 -18.955c0 -193.34 -147.18 -416.116 -416.117 -416.116c-82.955 0 -159.89 24.0838 -224.559 65.5617c11.819 -1.338 23.191 -1.784 35.233 -1.784c68.461 0 131.347 23.1919 181.521 62.4397
c-64.223 1.338 -118.189 43.4848 -136.699 101.465c22.524 -3.345 42.816 -3.345 66.008 2.676c-66.899 13.603 -117.074 72.4746 -117.074 143.611v1.7838c19.402 -10.9269 42.148 -17.6168 66.008 -18.5088c-35.9441 23.9088 -65.1162 78.3492 -65.1162 121.519
c0 0.0658723 8.74264e-05 0.172795 0.000195148 0.238668c0 27.206 7.136 52.1818 19.847 73.8128c72.03 -88.7537 180.182 -146.733 301.495 -152.977c-20.739 99.2346 53.519 179.737 142.719 179.737c42.147 0 80.057 -17.6169 106.818 -46.1608
c33.003 6.244 64.669 18.509 92.766 35.2339c-10.927 -33.8959 -33.895 -62.4397 -64.223 -80.5027c29.435 3.1221 57.98 11.373 84.293 22.7459c-19.847 -29.2129 -44.822 -55.0807 -73.366 -75.8196h-0.001z" />
    <glyph glyph-name="twitter_c" unicode="f" vert-adv-y="90" 
d="M500 944.094c-265.769 0 -481.219 -215.448 -481.219 -481.218c0 -127.627 50.6976 -250.029 140.945 -340.276c90.2456 -90.2462 212.648 -140.943 340.274 -140.943c127.629 0 250.025 50.6966 340.271 140.943c90.2466 90.2463 140.948 212.648 140.948 340.276
c0 127.627 -50.7014 250.029 -140.948 340.276c-90.2465 90.2462 -212.643 140.943 -340.271 140.943zM620.879 713.509c36.4203 0 69.3125 -15.2742 92.4163 -39.9457c28.5885 5.48268 56.0019 16.0575 80.2827 30.5472
c-9.39763 -29.3711 -29.3709 -54.0427 -55.6102 -69.7072c25.4559 2.74134 50.1275 9.78748 72.8397 19.5779c-17.2295 -25.0622 -38.7666 -47.3846 -63.4362 -65.3984c0.39072 -5.48268 0.39072 -10.9668 0.39072 -16.4494c0 -167.218 -127.275 -359.891 -359.892 -359.891
c-71.6656 0 -138.242 20.7573 -194.244 56.7855c10.182 -1.17458 19.9742 -1.56637 30.5479 -1.56637c59.1334 0 113.567 19.9731 157.035 54.043c-55.6092 1.17507 -102.21 37.5925 -118.266 87.7187c7.83281 -1.17458 15.6627 -1.9568 23.8872 -1.9568
c11.3561 0 22.7151 1.56754 33.2887 4.30868c-57.9584 11.7484 -101.426 62.6575 -101.426 124.141v1.56636c16.8397 -9.39869 36.4174 -15.2714 57.1721 -16.0547c-34.0702 22.7136 -56.3906 61.4836 -56.3906 105.344c0 23.4967 6.26605 45.0346 17.2304 63.8321
c62.267 -76.7559 155.861 -126.885 260.814 -132.368c-1.95845 9.3987 -3.13352 19.1902 -3.13352 28.9805c0 69.707 56.3945 126.493 126.493 126.493z" />
    <glyph glyph-name="facebook" unicode="g" vert-adv-y="90" 
d="M512 950.343c-274.124 0 -496.342 -222.22 -496.342 -496.344c0 -131.638 52.289 -257.888 145.371 -350.97c93.084 -93.0827 219.333 -145.373 350.971 -145.373c131.638 0 257.883 52.2902 350.966 145.373c93.083 93.0826 145.377 219.332 145.377 350.97
c0 131.639 -52.294 257.888 -145.377 350.971c-93.083 93.0826 -219.328 145.373 -350.966 145.373zM588.202 769.665c41.061 0 76.327 -3.0837 86.561 -4.4398v-100.373h-59.432c-46.61 0 -55.612 -22.1947 -55.612 -54.624v-77.3126h105.181l-14.428 -112.207h-90.753
v-282.373h-115.906v282.373h-94.577v112.207h94.577v88.4098c0 96.0552 58.692 148.34 144.389 148.34z" />
    <glyph glyph-name="facebook_b" unicode="h" vert-adv-y="90" 
d="M998.266 915.494v-782.988c0 -58.9466 -47.8249 -106.771 -106.772 -106.771h-189.742v394.164h134.799l19.3534 150.369h-154.152v96.094c0 43.5984 12.0126 73.1829 74.5179 73.1829h79.6343v134.353c-13.7924 1.7796 -60.9497 6.0058 -116.114 6.0058
c-114.779 0 -193.523 -70.0683 -193.523 -198.861v-110.997h-135.243v-150.369h135.466v-393.941h-437.984c-58.947 0 -106.772 47.8245 -106.772 106.771v782.989c0 58.9467 47.8249 106.771 106.772 106.771h782.988c58.947 0 106.772 -47.8245 106.772 -106.771z" />
    <glyph glyph-name="facebook_c" unicode="i" vert-adv-y="90" 
d="M512 942.094c-265.771 0 -481.217 -215.448 -481.217 -481.219c0 -127.627 50.6956 -250.029 140.941 -340.276c90.2475 -90.2462 212.649 -140.943 340.276 -140.943s250.025 50.6968 340.271 140.943c90.2465 90.2462 140.947 212.648 140.947 340.276
c0 127.627 -50.7005 250.029 -140.947 340.276c-90.2465 90.2461 -212.644 140.943 -340.271 140.943zM585.88 766.921c39.8098 0 74.0011 -2.98973 83.9233 -4.30451v-97.3147h-57.621c-45.1897 0 -53.9174 -21.5184 -53.9174 -52.9595v-74.9567h101.976l-13.9883 -108.788
h-87.9876v-273.768h-112.374v273.768h-91.695v108.788h91.695v85.7157c0 93.1282 56.9035 143.82 139.989 143.82z" />
    <glyph glyph-name="linkedin" unicode="j" vert-adv-y="90" 
d="M267.971 104.003h-174.186v560.809h174.186v-560.809zM180.784 741.311c-55.6876 0 -100.875 46.1248 -100.875 101.812c0 55.6872 45.1874 100.874 100.875 100.874c55.6867 0 100.874 -45.1872 100.874 -100.874c0 -55.6871 -45.1874 -101.812 -100.874 -101.812z
M919.904 104.003h-173.811v272.998c0 65.0621 -1.31298 148.499 -90.5619 148.499c-90.5619 0 -104.437 -70.6869 -104.437 -143.812v-277.686h-173.999v560.809h167.061v-76.4995h2.43669c23.2501 44.0621 80.0616 90.5618 164.812 90.5618
c176.248 0 208.685 -116.062 208.685 -266.811v-308.06h-0.18703z" />
    <glyph glyph-name="linkedin_b" unicode="k" vert-adv-y="90" 
d="M927.084 1022.27h-854.391c-39.149 0 -70.9584 -32.2538 -70.9584 -71.8481v-852.834c0 -39.5943 31.8094 -71.8481 70.9584 -71.8481h854.391c39.1502 0 71.1813 32.2538 71.1813 71.8481v852.834c0 39.5943 -32.0311 71.8481 -71.1813 71.8481zM302.919 168.096
h-147.701v475.577h147.922v-475.577h-0.2217zM229.068 708.625c-47.379 0 -85.6399 38.482 -85.6399 85.6394c0 47.1572 38.2609 85.6392 85.6399 85.6392c47.1574 0 85.64 -38.482 85.64 -85.6392c0 -47.3798 -38.2609 -85.6394 -85.64 -85.6394zM856.571 168.096h-147.701
v231.338c0 55.1651 -1.1122 126.123 -76.7411 126.123c-76.964 0 -88.7537 -60.0587 -88.7537 -122.119v-235.342h-147.701v475.577h141.694v-64.9524h2.0038c19.7968 37.3699 68.0652 76.7418 139.914 76.7418c149.479 0 177.284 -98.5409 177.284 -226.666v-260.7z" />
    <glyph glyph-name="linkedin_c" unicode="l" vert-adv-y="90" 
d="M500 1020.34c-274.125 0 -496.344 -222.22 -496.344 -496.344c0 -131.638 52.292 -257.888 145.375 -350.971c93.083 -93.0828 219.329 -145.373 350.969 -145.373c131.639 0 257.884 52.2903 350.969 145.373c93.082 93.0826 145.375 219.332 145.375 350.971
c0 131.639 -52.294 257.888 -145.375 350.971c-93.085 93.0826 -219.33 145.373 -350.969 145.373zM281.342 811.691c38.1445 0 69.0977 -30.9527 69.0977 -69.0977c0 -38.1448 -30.9532 -69.7383 -69.0977 -69.7383c-38.1451 0 -69.0976 31.5935 -69.0976 69.7383
c0 38.145 30.9525 69.0977 69.0976 69.0977zM644.809 630.086c120.727 0 142.947 -79.5009 142.947 -182.762v-211.016h-0.1289h-119.057v187c0 44.5665 -0.8991 101.719 -62.0332 101.719c-62.0335 0 -71.539 -48.4186 -71.539 -98.5078v-190.211h-119.186v384.144h114.434
v-52.4004h1.6699c15.9261 30.1819 54.8396 62.0332 112.893 62.0332zM221.748 620.453h119.316v-384.144h-119.316v384.144z" />
    <glyph glyph-name="gplus" unicode="m" vert-adv-y="90" 
d="M644.064 570.804c3.12017 -16.4929 5.34813 -32.986 5.34813 -54.3801c0 -186.768 -125.254 -319.153 -313.803 -319.153c-180.526 0 -326.731 146.203 -326.731 326.729c0 180.527 146.205 326.73 326.731 326.73c88.2575 0 161.804 -32.0927 218.859 -85.5828
l-88.7036 -85.1368c-24.0703 23.179 -66.4141 50.3691 -130.155 50.3691c-111.436 0 -202.369 -92.2689 -202.369 -206.379c0 -114.11 90.9329 -206.379 202.369 -206.379c129.263 0 177.851 93.1606 185.427 140.856h-185.427v112.329h308.455v-0.00164zM896.28 559.85
v94.8418h-95.2966v-94.8418h-94.843v-95.2978h94.843v-94.8418h95.2966v94.8418h94.8417v95.2978h-94.8417z" />
    <glyph glyph-name="gplus_b" unicode="n" vert-adv-y="90" 
d="M891.495 1022.27h-782.989c-58.9458 0 -106.771 -47.8246 -106.771 -106.771v-782.988c0 -58.9467 47.8249 -106.771 106.771 -106.771h782.989c58.9458 0 106.771 47.8245 106.771 106.771v782.988c0 58.9466 -47.8249 106.771 -106.771 106.771zM366.536 301.56
c-123.01 0 -222.44 99.4306 -222.44 222.44c0 123.009 99.4299 222.44 222.44 222.44c60.058 0 110.107 -21.799 149.035 -58.2792l-60.281 -58.0567c-16.4613 15.7931 -45.1558 34.2556 -88.5319 34.2556c-75.8518 0 -137.691 -62.7279 -137.691 -140.582
c0 -77.6316 61.8389 -140.582 137.691 -140.582c88.0861 0 121.008 63.3953 126.346 95.8715h-126.567v76.5194h209.983c2.2233 -11.1221 3.5584 -22.4665 3.5584 -36.925c0 -127.013 -85.1941 -217.101 -213.541 -217.101zM855.904 483.516h-64.508v-64.5075h-64.9527
v64.5075h-64.5068v64.9525h64.5068v64.5075h64.9527v-64.5075h64.508v-64.9525z" />
    <glyph glyph-name="gplus_c" unicode="o" vert-adv-y="90" 
d="M500 1020.34c-274.124 0 -496.344 -222.22 -496.344 -496.343c0 -131.638 52.29 -257.888 145.373 -350.97c93.082 -93.0828 219.332 -145.373 350.971 -145.373c131.638 0 257.883 52.2901 350.966 145.373c93.084 93.0826 145.378 219.332 145.378 350.97
c0 131.639 -52.294 257.888 -145.378 350.971c-93.083 93.0828 -219.328 145.373 -350.966 145.373zM381.374 721.714c53.407 0 97.908 -19.423 132.434 -51.7915l-53.676 -51.5183c-14.565 14.0264 -40.187 30.4805 -78.758 30.4805
c-67.433 0 -122.459 -55.8336 -122.459 -124.885c0 -69.0513 55.026 -124.885 122.459 -124.885c78.221 0 107.623 56.3727 112.206 85.2347h-112.206v67.9738h186.651c1.889 -9.9804 3.236 -19.96 3.236 -32.9062c0 -113.019 -75.791 -193.132 -189.887 -193.132
c-109.241 0 -197.714 88.4724 -197.714 197.714c0 109.242 88.473 197.714 197.714 197.714zM701.283 603.084h57.664v-57.392h57.394v-57.6649h-57.394v-57.3921h-57.664v57.3921h-57.392v57.6649h57.392v57.392z" />
    <glyph glyph-name="pinterest" unicode="p" vert-adv-y="90" 
d="M523.041 1003.17c-197.002 0 -391.699 -131.334 -391.699 -343.889c0 -135.174 76.036 -211.978 122.118 -211.978c19.0096 0 29.954 52.9945 29.954 67.9713c0 17.8569 -45.5059 55.8747 -45.5059 130.182c0 154.375 117.509 263.821 269.581 263.821
c130.758 0 227.531 -74.3074 227.531 -210.826c0 -101.957 -40.8984 -293.198 -173.385 -293.198c-47.8102 0 -88.7086 34.5616 -88.7086 84.1c0 72.5795 50.6907 142.855 50.6907 217.738c0 127.11 -180.297 104.069 -180.297 -49.5384
c0 -32.2575 4.03143 -67.9712 18.4323 -97.3489c-26.4975 -114.053 -80.6435 -283.981 -80.6435 -401.491c0 -36.2897 5.18475 -72.0034 8.64009 -108.293c6.52894 -7.29634 3.26447 -6.52831 13.2487 -2.88013c96.7727 132.486 93.3173 158.408 137.095 331.792
c23.6171 -44.9302 84.6761 -69.1233 133.062 -69.1233c203.914 0 295.503 198.73 295.503 377.874c0 190.665 -164.745 315.087 -345.617 315.087z" />
    <glyph glyph-name="pinterest_b" unicode="q" vert-adv-y="90" 
d="M998.265 915.494v-782.988c0 -58.9467 -47.8249 -106.771 -106.772 -106.771h-546.312c21.7984 36.4801 49.8265 88.976 60.9485 131.907c6.6733 25.5806 34.0326 129.905 34.0326 129.905c17.7965 -34.0333 69.8473 -62.7282 125.235 -62.7282
c164.827 0 283.388 151.482 283.388 339.666c0 180.399 -147.255 315.42 -336.774 315.42c-235.787 0 -360.797 -158.155 -360.797 -330.545c0 -80.0783 42.7086 -179.731 110.775 -211.54c10.4557 -4.8937 15.7938 -2.6693 18.24 7.3404
c1.7798 7.563 11.1221 44.7105 15.1262 61.8384c1.334 5.5609 0.664 10.2322 -3.7812 15.5708c-22.4671 27.36 -40.707 77.6314 -40.707 124.566c0 120.562 91.1998 237.121 246.686 237.121c134.131 0 228.223 -91.4227 228.223 -222.217
c0 -147.7 -74.5167 -250.022 -171.723 -250.022c-53.6089 0 -93.6472 44.2656 -80.9682 98.7633c15.348 64.9524 45.1558 135.021 45.1558 181.956c0 117.893 -167.942 101.655 -167.942 -55.61c0 -48.2695 16.2373 -81.1906 16.2373 -81.1906
c-69.8461 -295.4 -80.3006 -299.182 -65.8419 -428.419l4.8934 -1.7795h-197.081c-58.947 -1.3145e-13 -106.771 47.8245 -106.771 106.771v782.988c0 58.9466 47.8237 106.771 106.771 106.771h782.988c58.947 0 106.772 -47.8246 106.772 -106.771z" />
    <glyph glyph-name="pinterest_c" unicode="r" vert-adv-y="90" 
d="M500 1020.34c-274.124 0 -496.342 -222.22 -496.342 -496.343c0 -131.639 52.289 -257.888 145.371 -350.97c93.084 -93.0828 219.333 -145.373 350.971 -145.373c131.638 0 257.884 52.2901 350.966 145.373c93.083 93.0826 145.377 219.332 145.377 350.97
c0 131.639 -52.294 257.888 -145.377 350.971c-93.083 93.0828 -219.328 145.373 -350.966 145.373zM515.147 839.045c118.922 0 227.242 -81.8049 227.242 -207.166c0 -117.786 -60.216 -248.449 -194.287 -248.449c-31.815 0 -71.959 15.9092 -87.488 45.4502
c-28.783 -113.999 -26.515 -131.042 -90.142 -218.15c-6.565 -2.3987 -4.418 -2.9047 -8.711 1.8928c-2.272 23.8601 -5.678 47.3406 -5.678 71.2005c0 77.2616 35.599 188.988 53.022 263.977c-9.469 19.3154 -12.12 42.7972 -12.12 64.0061
c0 100.995 118.544 116.146 118.544 32.5727c0 -49.2353 -33.331 -95.4434 -33.331 -143.164c0 -32.571 26.893 -55.2956 58.327 -55.2956c87.11 0 113.996 125.741 113.996 192.776c0 89.7595 -63.624 138.616 -149.596 138.616
c-99.985 0 -177.248 -71.9579 -177.248 -173.458c0 -48.8563 29.922 -73.8536 29.922 -85.5943c0 -9.847 -7.197 -44.692 -19.696 -44.692c-30.297 0 -80.292 50.498 -80.292 139.374c0 139.752 128.01 226.103 257.536 226.103z" />
    <glyph glyph-name="vk" unicode="s" vert-adv-y="90" 
d="M961.752 772.424c6.64659 22.4534 0 38.9791 -31.9736 38.9791h-105.8c-26.9444 0 -39.3385 -14.1906 -45.9851 -29.9977c0 0 -53.8881 -131.307 -130.05 -216.451c-24.6089 -24.6089 -35.9249 -32.5125 -49.3967 -32.5125c-6.64647 0 -16.8857 7.90359 -16.8857 30.357
v209.625c0 26.9441 -7.54436 38.9791 -29.8174 38.9791h-166.335c-16.8845 0 -26.9448 -12.5739 -26.9448 -24.2497c0 -25.5071 38.0819 -31.4348 42.0335 -103.286v-155.916c0 -34.1292 -6.10751 -40.4161 -19.5793 -40.4161c-35.9249 0 -123.225 131.846 -174.957 282.733
c-10.4181 29.2792 -20.6573 41.1346 -47.781 41.1346h-105.8c-30.1775 0 -36.285 -14.1906 -36.285 -29.9977c0 -28.0218 35.926 -167.233 167.233 -351.171c87.4786 -125.56 210.703 -193.638 322.791 -193.638c67.3603 0 75.6226 15.0887 75.6226 41.1346
c0 119.991 -6.10751 131.307 27.6627 131.307c15.6277 0 42.5714 -7.90342 105.441 -68.4378c71.8507 -71.8509 83.7058 -104.004 123.942 -104.004h105.801c30.1774 0 45.4453 15.0887 36.644 44.907c-20.1189 62.6899 -156.096 191.662 -162.204 200.284
c-15.6277 20.1181 -11.1369 29.0996 0 47.0621c0.17613 0.1798 129.332 181.963 142.624 243.575z" />
    <glyph glyph-name="vk_b" unicode="t" vert-adv-y="90" 
d="M108.505 1022.27c-58.9458 0 -106.771 -47.8245 -106.771 -106.771v-782.988c0 -58.9466 47.8249 -106.771 106.771 -106.771h782.989c58.9458 0 106.771 47.8245 106.771 106.771v782.989c0 58.9467 -47.8249 106.771 -106.771 106.771zM171.332 735.075h77.7015
c19.9213 0 27.44 -8.7041 35.0915 -30.2076c37.9929 -110.816 102.11 -207.647 128.493 -207.647c9.8948 0 14.3804 4.6165 14.3804 29.6817v114.509c-2.9014 52.7696 -30.8714 57.1225 -30.8714 75.8557c0 8.5751 7.3882 17.8084 19.7897 17.8084h122.159
c16.3582 0 21.9002 -8.8378 21.9002 -28.6263v-153.953c0 -16.4904 7.5187 -22.2963 12.4003 -22.2963c9.8925 0 18.2068 5.8041 36.2807 23.8776c55.9341 62.5316 95.5099 158.966 95.5099 158.966c4.8805 11.6091 13.9856 22.0311 33.7741 22.0311h77.7016
c23.482 0 28.3636 -12.1359 23.482 -28.6262c-9.762 -45.2497 -104.616 -178.754 -104.745 -178.886c-8.1803 -13.1922 -11.4778 -19.7898 0 -34.5651c4.4844 -6.3322 104.351 -101.051 119.127 -147.092c6.4634 -21.8993 -4.7523 -32.9836 -26.9158 -32.9836h-77.7016
c-29.5506 0 -38.2573 23.6161 -91.0267 76.3854c-46.1732 44.4581 -65.9593 50.2618 -77.4359 50.2618c-24.8018 0 -20.3185 -8.3108 -20.3185 -96.4355c0 -19.1289 -6.0709 -30.2117 -55.5416 -30.2117c-82.3199 0 -172.818 49.9993 -237.064 142.214
c-96.4359 135.089 -122.819 237.328 -122.819 257.909c0 11.6091 4.4868 22.0311 26.6491 22.0312z" />
    <glyph glyph-name="vk_c" unicode="u" vert-adv-y="90" 
d="M500 1020.34c-274.124 0 -496.344 -222.22 -496.344 -496.343c0 -131.638 52.291 -257.888 145.373 -350.97c93.083 -93.0828 219.331 -145.373 350.971 -145.373c131.638 0 257.883 52.2901 350.966 145.373c93.082 93.0827 145.377 219.332 145.377 350.97
c0 131.639 -52.295 257.888 -145.377 350.971c-93.083 93.0826 -219.328 145.373 -350.966 145.373zM195.403 719.618h72.011c18.46 0 25.428 -8.0703 32.52 -27.9986c35.211 -102.699 94.634 -192.439 119.086 -192.439c9.168 0 13.322 4.2797 13.322 27.5091v106.121
c-2.689 48.9038 -28.609 52.9388 -28.609 70.2998c0 7.9469 6.847 16.5073 18.34 16.5073h113.212c15.16 0 20.297 -8.1914 20.297 -26.5303v-142.679c0 -15.2824 6.968 -20.6608 11.491 -20.6608c9.169 0 16.872 5.3797 33.621 22.1292
c51.838 57.9513 88.518 147.322 88.518 147.322c4.524 10.759 12.96 20.4187 31.299 20.4187h72.011c21.762 0 26.285 -11.2478 21.761 -26.5303c-9.047 -41.9352 -96.952 -165.665 -97.072 -165.787c-7.58 -12.226 -10.637 -18.3382 0 -32.0311
c4.157 -5.8685 96.707 -93.6513 110.4 -136.32c5.991 -20.2952 -4.401 -30.5671 -24.94 -30.5671h-72.011c-27.386 0 -35.456 21.8853 -84.36 70.7891c-42.791 41.2018 -61.131 46.5806 -71.768 46.5806c-22.985 0 -18.829 -7.7014 -18.829 -89.3711
c0 -17.7277 -5.623 -27.9986 -51.47 -27.9986c-76.291 0 -160.162 46.3382 -219.702 131.798c-89.372 125.194 -113.822 219.946 -113.822 239.019c0 10.759 4.154 20.4187 24.694 20.4187z" />
    <glyph glyph-name="whatsapp" unicode="v" vert-adv-y="90" 
d="M833.469 861.72c-89.0528 89.2653 -207.648 138.361 -333.682 138.361c-260.145 0 -471.831 -211.686 -471.831 -471.83c0 -83.1015 21.6787 -164.291 62.9107 -235.915l-66.9489 -244.416l250.155 65.6737c68.8617 -37.6189 146.438 -57.3848 225.501 -57.3848h0.21261
c259.932 0 476.294 211.686 476.294 471.831c0 126.034 -53.5592 244.416 -142.612 333.682zM499.788 135.696c-70.5621 0 -139.636 18.9157 -199.784 54.6218l-14.24 8.50145l-148.35 -38.8941l39.5317 144.737l-9.35161 14.8773
c-39.3191 62.4857 -59.9352 134.536 -59.9352 208.711c0 216.149 175.98 392.129 392.342 392.129c104.78 0 203.185 -40.807 277.147 -114.982c73.9624 -74.1752 119.445 -172.579 119.233 -277.36c0 -216.362 -180.443 -392.342 -396.593 -392.342zM714.874 429.421
c-11.6895 5.95101 -69.7119 34.4309 -80.5512 38.2565c-10.8394 4.0384 -18.7032 5.95102 -26.567 -5.95079c-7.86382 -11.9023 -30.3927 -38.2565 -37.4063 -46.3331c-6.80124 -7.86383 -13.8149 -8.92652 -25.5044 -2.9755
c-69.2869 34.6434 -114.77 61.8483 -160.465 140.274c-12.1146 20.8285 12.1145 19.3408 34.6434 64.3985c3.82566 7.86384 1.91277 14.665 -1.06269 20.616c-2.97547 5.95101 -26.567 63.9734 -36.3437 87.5649c-9.56422 22.9539 -19.3408 19.7659 -26.567 20.191
c-6.80113 0.42486 -14.6651 0.42486 -22.529 0.42486c-7.86383 0 -20.616 -2.97572 -31.4553 -14.6652c-10.8394 -11.9018 -41.232 -40.3819 -41.232 -98.4043c0 -58.0224 42.2947 -114.132 48.0331 -121.996c5.95104 -7.86385 83.1018 -126.884 201.484 -178.105
c74.8128 -32.3055 104.143 -35.0685 141.549 -29.5425c22.7414 3.40058 69.7118 28.4799 79.4885 56.1096c9.77671 27.6297 9.77671 51.2212 6.80113 56.1096c-2.76297 5.3134 -10.6268 8.28891 -22.3163 14.0276z" />
    <glyph glyph-name="whatsapp_b" unicode="w" vert-adv-y="90" 
d="M500 820.29c-161.714 0 -293.176 -131.462 -293.399 -293.176c0 -55.3874 15.5709 -109.44 44.9329 -155.93l6.8962 -11.1219l-29.585 -108.106l110.998 29.1394l10.6774 -6.4506c44.933 -26.6927 96.538 -40.9291 149.256 -40.9291h0.223
c161.492 0 296.512 131.462 296.512 293.176c0 78.2989 -33.8108 151.926 -89.1983 207.314c-55.6103 55.6103 -129.015 86.0845 -207.314 86.0845zM672.391 401.213c-7.3408 -20.6869 -42.4856 -39.3719 -59.3916 -41.8187
c-28.027 -4.2263 -49.8265 -2.0018 -105.659 22.0218c-88.3092 38.2594 -146.144 127.235 -150.593 133.019c-4.4488 5.7834 -36.0352 47.8245 -36.0352 91.2006c0 43.3755 22.6888 64.7297 30.92 73.6272c8.0072 8.8976 17.5724 11.122 23.5781 11.122
c5.7828 0 11.7897 0 16.906 -0.2229c5.3382 -0.2227 12.679 2.002 19.7969 -15.1259c7.3408 -17.5726 24.9132 -60.9485 27.1376 -65.3972c2.2244 -4.4488 3.7812 -9.565 0.6675 -15.3485c-16.906 -33.8109 -34.923 -32.4763 -25.8036 -48.047
c34.0337 -58.5015 68.0664 -78.7438 119.896 -104.769c8.8977 -4.4488 14.0141 -3.7817 19.1305 2.2244c5.1152 5.7834 22.0212 25.803 27.8039 34.478c5.784 8.8975 11.7897 7.3406 19.798 4.4489c8.0072 -2.8917 51.3833 -24.2459 60.281 -28.6949
c8.8976 -4.4486 14.6816 -6.6732 16.9048 -10.232c2.0027 -4.2266 2.0027 -22.0216 -5.3381 -42.4861zM891.495 1022.27h-782.989c-58.9458 0 -106.771 -47.8246 -106.771 -106.771v-782.988c0 -58.9467 47.8249 -106.771 106.771 -106.771h782.989
c58.9458 0 106.771 47.8245 106.771 106.771v782.988c0 58.9466 -47.8249 106.771 -106.771 106.771zM499.777 174.325c-59.1688 0 -117.225 14.9037 -168.608 42.9312l-187.073 -49.1595l50.0494 182.846c-30.9189 53.3856 -47.1574 114.112 -47.1574 176.395
c0.2229 194.413 158.377 352.567 352.789 352.567c94.3147 0 182.846 -36.7022 249.578 -103.434c66.5095 -66.732 106.549 -155.263 106.549 -249.578c0 -194.412 -161.714 -352.567 -356.127 -352.567z" />
    <glyph glyph-name="whatsapp_c" unicode="y" vert-adv-y="90" 
d="M500 1020.34c-274.123 0 -496.343 -222.22 -496.343 -496.343c0 -131.638 52.29 -257.888 145.373 -350.97c93.082 -93.0828 219.332 -145.373 350.97 -145.373c131.639 0 257.884 52.2901 350.966 145.373c93.083 93.0826 145.378 219.332 145.378 350.97
c0 131.639 -52.295 257.888 -145.378 350.971c-93.082 93.0828 -219.327 145.373 -350.966 145.373zM499.863 839.375c83.489 0 162.048 -32.5261 221.039 -91.6583c58.992 -59.1325 94.474 -137.55 94.474 -221.039c0 -172.329 -143.33 -312.559 -315.517 -312.559h-0.138
c-52.374 0 -103.763 13.0929 -149.379 38.0132l-165.714 -43.5053l44.35 161.91c-27.313 47.4465 -41.673 101.23 -41.673 156.28c0 172.328 140.231 312.559 312.559 312.559zM500 786.574c-143.325 0 -259.901 -116.574 -259.901 -259.758
c0 -49.136 13.656 -96.8638 39.702 -138.256l6.199 -9.8542l-26.188 -95.8815l98.272 25.7678l9.434 -5.6351c39.844 -23.6529 85.601 -36.1807 132.344 -36.1807c143.185 0 262.712 116.575 262.712 259.901c0.142 69.4099 -29.985 134.596 -78.98 183.732
c-48.996 49.1361 -114.183 76.1647 -183.594 76.1647zM389.058 670.984c5.21 0 10.417 0 14.922 -0.2817c4.787 -0.2816 11.263 1.834 17.599 -13.3712c6.476 -15.6278 22.103 -54.065 24.074 -58.0073c1.971 -3.9421 3.241 -8.4477 0.706 -13.6571
c-14.924 -29.8477 -30.973 -28.863 -22.948 -42.6606c30.27 -51.9518 60.396 -69.9741 106.294 -92.923c7.744 -3.9422 12.392 -3.2386 16.897 1.9709c4.646 5.3502 19.571 22.8082 24.781 30.6926c5.209 7.8843 10.418 6.617 17.598 3.9418
c7.181 -2.5343 45.616 -21.3968 53.36 -25.3391c7.743 -3.8014 12.953 -5.7756 14.783 -9.2953c1.971 -3.2381 1.972 -18.8654 -4.505 -37.1685c-6.476 -18.3028 -37.593 -34.9155 -52.657 -37.1682c-24.779 -3.6605 -44.209 -1.8306 -93.768 19.5696
c-78.421 33.9305 -129.528 112.775 -133.47 117.985c-3.801 5.2092 -31.819 42.3764 -31.819 80.8124c0 38.4359 20.134 57.3046 27.314 65.1887c7.181 7.7435 15.63 9.711 20.839 9.7113z" />
    <glyph glyph-name="tumblr" unicode="A" vert-adv-y="90" 
d="M793.456 84.6251c-26.64 -28.4036 -97.943 -62.0963 -190.794 -62.0963c-236.631 0 -287.953 173.948 -287.953 275.418v282.077h-93.047c-10.774 0 -19.589 8.8149 -19.589 19.5885v133.203c0 14.1039 8.815 26.6405 22.135 31.3418
c121.451 42.7036 159.649 148.874 165.134 229.384c1.567 21.5476 12.732 31.9296 31.537 31.9296h138.884c10.774 0 19.589 -8.8149 19.589 -19.5886v-225.662h162.586c10.774 0 19.589 -8.619 19.589 -19.3928v-160.04c0 -10.7736 -8.815 -19.5885 -19.589 -19.5885
h-163.37v-260.922c0 -66.9934 46.426 -104.995 133.204 -70.1276c9.402 3.7218 17.63 6.2684 24.877 4.3095c6.857 -1.763 11.362 -6.6602 14.496 -15.4751l43.096 -125.956c3.525 -9.7943 6.464 -20.764 -0.785 -28.4036z" />
    <glyph glyph-name="tumblr_b" unicode="B" vert-adv-y="90" 
d="M892.699 1023.6h-785.398c-59.1273 0 -107.099 -47.9718 -107.099 -107.1v-785.399c0 -59.1281 47.9721 -107.1 107.099 -107.1h785.398c59.1284 0 107.099 47.9718 107.099 107.1v785.399c0 59.1281 -47.971 107.1 -107.099 107.1zM709.067 210.978
c-18.9645 -20.3044 -69.6151 -44.1786 -135.882 -44.1786c-168.459 0 -205.051 123.834 -205.051 196.127v200.812h-66.2682c-7.58582 0 -13.8336 6.24753 -13.8336 13.8337v94.828c0 10.0404 6.24777 18.9655 15.8413 22.3123
c86.5732 30.5682 113.571 105.984 117.587 163.327c1.11563 15.3956 9.14746 22.7586 22.3126 22.7586h98.844c7.58581 0 13.8336 -6.24741 13.8336 -13.8337v-160.65h115.802c7.58582 0 13.8336 -6.24753 13.8336 -13.8337v-114.017
c0 -7.58617 -6.24777 -13.8337 -13.8336 -13.8337h-116.248v-185.863c0 -47.7486 33.0229 -74.7467 94.8274 -49.9799c6.69498 2.67751 12.4955 4.46252 17.8501 3.12377c4.90972 -1.11563 8.03301 -4.68565 10.2643 -10.9331l30.7905 -89.6961
c2.23126 -7.14009 4.46252 -14.9494 -0.66605 -20.3044h-0.00357z" />
    <glyph glyph-name="tumblr_C" unicode="C" vert-adv-y="90" 
d="M500 1023.08c-275.888 0 -499.538 -223.65 -499.538 -499.538c0 -132.486 52.6263 -259.548 146.308 -353.229c93.6819 -93.6819 220.744 -146.309 353.23 -146.309c132.486 0 259.543 52.6266 353.225 146.309c93.6819 93.6817 146.312 220.743 146.312 353.229
c0 132.486 -52.6304 259.548 -146.312 353.229c-93.6818 93.6819 -220.74 146.308 -353.225 146.308zM449.706 842.302h88.2813c6.8482 0 12.4548 -5.60624 12.4548 -12.4547v-143.44h103.347c6.8482 0 12.4505 -5.47971 12.4505 -12.3282v-101.73
c0 -6.8482 -5.60231 -12.4544 -12.4505 -12.4544h-103.848v-165.856c0 -42.5847 29.5102 -66.7384 84.6716 -44.5743c5.97655 2.36574 11.2085 3.98278 15.8154 2.73759c4.35797 -1.12043 7.21935 -4.23142 9.21109 -9.83457l27.3946 -80.0639
c2.24064 -6.22568 4.1099 -13.2004 -0.49779 -18.0565c-16.934 -18.055 -62.2557 -39.4737 -121.277 -39.4737c-150.416 0 -183.04 110.572 -183.04 175.071v179.304h-59.1479c-6.84832 0 -12.4506 5.60207 -12.4506 12.4502v84.6718
c0 8.96517 5.60494 16.9336 14.0729 19.9221c77.1997 27.1446 101.477 94.6353 104.964 145.812c0.99628 13.6969 8.09493 20.297 20.0486 20.297z" />
    <glyph glyph-name="delicious" unicode="D" vert-adv-y="90" 
d="M916.758 876.403c-0.74996 2.81041 -1.6867 5.62046 -2.62344 8.43088c-1.68614 4.68372 -3.74662 8.99274 -6.18251 13.3018c-2.6227 4.49637 -5.62009 8.99274 -8.80502 12.9271c-3.93414 4.68353 -8.24353 8.99274 -12.9269 12.7395
c-2.06121 1.68633 -4.12186 3.18493 -6.18307 4.68391c-2.43516 1.68614 -4.87088 3.18474 -7.49376 4.49637c-3.37247 1.8733 -6.74456 3.37228 -10.304 4.68372c-3.18511 1.31144 -6.55758 2.43553 -10.1172 3.18493c-7.11851 1.8733 -14.7998 2.81023 -22.4811 2.81023
h-659.468c-49.647 0.18753 -89.9274 -40.0928 -89.9274 -89.7402v-659.467c0 -7.6813 0.936744 -15.3626 2.81044 -22.4819c3.74716 -14.4259 10.8664 -27.3531 20.6082 -38.0318c1.87369 -2.06084 3.9349 -4.12167 6.18307 -6.1827
c10.6787 -9.74194 23.6056 -16.8614 38.0316 -20.6082c7.11906 -1.87368 14.8004 -2.81042 22.4819 -2.81042h659.467c49.6478 0 89.9274 40.28 89.9274 89.9274v659.655c-0.19108 7.68149 -1.12428 15.3628 -2.99719 22.4819zM859.616 194.453
c0 -16.4867 -13.4891 -29.9758 -29.9754 -29.9758h-329.734v359.71h-359.71v329.734c0 16.4869 13.4891 29.976 29.9756 29.976h329.734v-359.71h359.71z" />
    <glyph glyph-name="delicious_b" unicode="E" vert-adv-y="90" 
d="M108.505 1022.27c-58.9458 0 -106.771 -47.8245 -106.771 -106.771v-782.988c0 -58.9468 47.8249 -106.771 106.771 -106.771h782.989c58.9458 0 106.771 47.8243 106.771 106.771v782.989c0 58.9467 -47.8249 106.771 -106.771 106.771zM219.743 880.59h560.358
c6.5274 0 13.0537 -0.7937 19.1032 -2.3852c3.0248 -0.6365 5.8871 -1.5923 8.5929 -2.7067c3.0248 -1.1144 5.8931 -2.3879 8.759 -3.9797c2.2279 -1.1144 4.2947 -2.3903 6.3649 -3.823c1.7513 -1.2737 3.505 -2.5467 5.2563 -3.9798
c3.9793 -3.1835 7.6408 -6.8468 10.9834 -10.8266c2.7058 -3.343 5.2527 -7.1623 7.4807 -10.983c2.0703 -3.6614 3.8204 -7.3203 5.2527 -11.2999c0.7957 -2.388 1.5913 -4.7762 2.2292 -7.1642c1.5912 -6.0491 2.388 -12.5757 2.5505 -19.1027v-560.518
c0 -42.1861 -34.2306 -76.4116 -76.4162 -76.4116h-560.358c-6.5263 0 -13.0537 0.7928 -19.102 2.3851c-12.258 3.1838 -23.2414 9.235 -32.3145 17.5129c-1.9114 1.7513 -3.6615 3.5014 -5.2528 5.2525c-8.2787 9.0737 -14.3294 20.0611 -17.5131 32.3188
c-1.5924 6.0496 -2.3892 12.5763 -2.3892 19.1031v560.358c0 42.1858 34.2294 76.4105 76.415 76.2508zM219.743 829.807c-14.0081 0 -25.4716 -11.4586 -25.4716 -25.4675v-280.179h305.651v305.646zM499.922 524.161v-305.651h280.179
c14.0082 0 25.467 11.4632 25.467 25.4722v280.179h-305.646z" />
    <glyph glyph-name="delicious_c" unicode="F" vert-adv-y="90" 
d="M499.999 1020.34c-274.123 0 -496.342 -222.22 -496.342 -496.344c0 -131.638 52.29 -257.886 145.373 -350.969c93.082 -93.0828 219.33 -145.373 350.969 -145.373s257.885 52.2902 350.967 145.373c93.083 93.0826 145.377 219.33 145.377 350.969
c0 131.639 -52.2939 257.888 -145.377 350.971c-93.082 93.0828 -219.328 145.373 -350.967 145.373zM300.812 777.438h398.264c4.6388 0 9.2772 -0.564 13.5762 -1.6953c2.1497 -0.4526 4.1859 -1.1318 6.1094 -1.9238c2.1496 -0.7921 4.1858 -1.6969 6.2226 -2.8281
c1.584 -0.7922 3.0548 -1.6985 4.5254 -2.7168c1.2448 -0.9053 2.4896 -1.8098 3.7344 -2.8282c2.8283 -2.2627 5.4307 -4.8648 7.8066 -7.6933c1.9234 -2.376 3.7345 -5.0913 5.3184 -7.8067c1.471 -2.6023 2.7162 -5.2046 3.7344 -8.0332
c0.5657 -1.6972 1.131 -3.3945 1.584 -5.0918c1.131 -4.2993 1.6932 -8.9391 1.8085 -13.5781v-398.375c0 -29.9828 -24.3255 -54.3086 -54.3085 -54.3086h-398.262c-4.6389 0 -9.2769 0.5657 -13.5761 1.6973c-8.7122 2.2627 -16.5198 6.564 -22.9688 12.4473
c-1.3577 1.2446 -2.601 2.4878 -3.7324 3.7324c-5.8833 6.449 -10.1843 14.2567 -12.4473 22.9687c-1.1315 4.2994 -1.6972 8.9373 -1.6972 13.5762v398.262c0 29.9828 24.326 54.3086 54.3086 54.1953zM300.812 741.347c-9.9564 0 -18.1016 -8.1468 -18.1016 -18.1035
v-199.131h217.234v217.234zM499.944 524.112v-217.232h199.131c9.9562 0 18.1016 8.145 18.1016 18.1016v199.131z" />
    <glyph glyph-name="flip" unicode="G" vert-adv-y="90" 
d="M35.9752 986.058v-924.116h299.932v924.116h-299.932zM359.493 986.058v-292.318h604.532v292.318h-604.532zM359.493 670.215v-297.648h292.475v297.648h-292.475z" />
    <glyph glyph-name="flip_b" unicode="H" vert-adv-y="90" 
d="M108.506 1022.27c-58.9466 0 -106.771 -47.8247 -106.771 -106.771v-782.988c0 -58.9465 47.8246 -106.771 106.771 -106.771h782.988c58.9466 0 106.771 47.8245 106.771 106.771v782.988c0 58.9465 -47.8246 106.771 -106.771 106.771zM145.699 878.692h237.05h237.051
h237.055v-237.051h-237.051v-237.055h-237.055v-237.046h-237.05v237.051v237.05v237.051z" />
    <glyph glyph-name="flip_c" unicode="I" vert-adv-y="90" 
d="M500 1020.34c-274.124 0 -496.343 -222.22 -496.343 -496.343c0 -131.639 52.289 -257.888 145.373 -350.971c93.082 -93.0828 219.331 -145.373 350.97 -145.373c131.638 0 257.884 52.29 350.966 145.373c93.083 93.0826 145.378 219.332 145.378 350.971
c0 131.639 -52.295 257.888 -145.378 350.971c-93.082 93.0829 -219.328 145.373 -350.966 145.373zM242.574 779.399h174.231h175.977h172.494v-174.233h-172.494h-1.744v-174.231h-174.233v-174.238h-174.231v522.702z" />
    <glyph glyph-name="reddit" unicode="J" vert-adv-y="90" 
d="M882.238 632.769c-31.1065 0 -58.4803 -12.8574 -78.5959 -32.9731c-74.0335 51.2219 -173.782 84.195 -284.314 87.7206l57.4435 258.806l182.906 -41.0602c0 -44.7935 36.4983 -81.2922 81.2917 -81.2922c45.6228 0 82.3286 37.5349 82.3286 82.3282
c0 44.7934 -36.4983 82.329 -82.3286 82.329c-31.936 0 -59.5172 -19.2859 -73.204 -45.6227l-201.985 44.7934c-10.1614 2.69553 -20.1155 -4.56244 -22.8114 -14.7242l-63.0427 -285.35c-109.702 -4.5623 -208.414 -37.5354 -282.655 -88.7575
c-20.1156 20.9451 -48.5261 33.8024 -79.6327 33.8024c-115.302 0 -153.044 -154.703 -47.4894 -207.584c-3.73274 -16.3826 -5.39178 -33.8022 -5.39178 -51.2219c0 -173.782 195.764 -314.591 436.114 -314.591c241.387 0 437.151 140.809 437.151 314.591
c0 17.4197 -1.86644 35.6684 -6.42876 52.0512c103.481 53.0891 65.3238 206.755 -49.3556 206.755zM237.503 414.194c0 45.6235 36.4984 82.329 82.3287 82.329c44.7934 0 81.2917 -36.4987 81.2917 -82.329c0 -44.7934 -36.4983 -81.2911 -81.2917 -81.2911
c-45.623 -0.20323 -82.3287 36.4977 -82.3287 81.2911zM681.912 220.297c-75.4853 -75.4858 -288.461 -75.4858 -363.946 0c-8.29507 7.25777 -8.29507 20.1149 0 28.4106c7.2582 7.25779 20.1156 7.25779 27.3738 0c57.6508 -59.103 248.852 -60.1391 308.991 0
c7.25821 7.25779 20.1156 7.25779 27.3738 0c8.50246 -8.2957 8.50246 -21.1529 0.2074 -28.4106zM680.253 332.695c-44.7934 0 -81.2917 36.4985 -81.2917 81.2919c0 45.6227 36.4983 82.3282 81.2917 82.3282c45.623 0 82.3287 -36.4977 82.3287 -82.3282
c-0.20763 -44.5865 -36.7057 -81.2919 -82.3287 -81.2919z" />
    <glyph glyph-name="reddit_b" unicode="K" vert-adv-y="90" 
d="M631.651 324.967c6.0044 -6.0046 6.0044 -15.1224 0 -20.4596c-54.484 -54.4843 -208.596 -54.7062 -263.303 0c-6.0044 5.3372 -6.0044 14.455 0 20.4596c5.3372 5.3372 14.455 5.3372 19.7921 0c41.5859 -42.6977 180.131 -43.587 223.496 0
c5.3373 5.1144 14.6774 5.1144 20.0145 0zM428.615 444.609c0 33.1355 -26.4636 59.5987 -58.9316 59.5987c-33.1353 0 -59.599 -26.4632 -59.599 -59.5987c0 -32.4678 26.4637 -58.9319 59.599 -58.9319c32.468 0 58.9316 26.4641 58.9316 58.9319zM630.317 504.208
c-32.468 0 -58.9316 -26.4632 -58.9316 -59.5987c0 -32.4678 26.4636 -58.9319 58.9316 -58.9319c33.1353 0 59.5989 26.4641 59.5989 58.9319c0 33.1355 -26.4636 59.5987 -59.5989 59.5987zM998.14 915.396v-782.792c0 -58.9313 -47.8126 -106.745 -106.744 -106.745
h-782.791c-58.9318 -1.77636e-14 -106.744 47.8134 -106.744 106.745v782.792c0 58.9313 47.8126 106.744 106.744 106.744h782.791c58.9318 0 106.744 -47.813 106.744 -106.744zM776.423 602.725c-22.4608 0 -42.253 -9.3403 -56.9304 -23.7955
c-53.5945 37.1386 -125.647 60.9334 -205.705 63.6021l41.5859 187.247l132.318 -29.7992c0 -32.468 26.4638 -58.9321 58.9318 -58.9321c33.1352 0 59.5989 27.1315 59.5989 59.5996c0 32.4678 -26.4637 59.5986 -59.5989 59.5986
c-23.128 0 -42.9202 -13.7878 -52.9274 -33.1354l-146.106 32.4681c-7.3387 2.0019 -14.455 -3.3353 -16.4564 -10.6745l-45.5888 -206.372c-79.391 -3.336 -150.776 -27.1309 -204.371 -64.2695c-14.4549 15.1226 -35.1366 24.4629 -57.5973 24.4629
c-83.394 0 -110.747 -112.082 -34.4696 -150.109c-2.6686 -12.0089 -4.0029 -24.4619 -4.0029 -37.1385c0 -125.647 141.659 -227.498 315.563 -227.498c174.572 0 316.23 101.852 316.23 227.498c0 12.6766 -1.3343 25.7969 -4.6701 37.8059
c74.721 38.2499 47.1453 149.442 -35.8038 149.442z" />
    <glyph glyph-name="reddit_c" unicode="L" vert-adv-y="90" 
d="M390.443 424.495c-27.74 0 -50.054 22.3134 -50.054 49.4512c0 27.7403 22.314 50.0539 50.054 50.0539c27.339 0 49.451 -22.3136 49.451 -50.0539c0 -27.3393 -22.313 -49.4512 -49.451 -49.4512zM998.529 524c0 -275.397 -223.132 -498.53 -498.53 -498.53
c-275.397 0 -498.529 223.133 -498.529 498.53c0 275.397 223.132 498.53 498.529 498.53c275.398 0 498.53 -223.133 498.53 -498.53zM732.58 606.82c-18.896 0 -35.58 -7.8392 -47.842 -20.1017c-45.029 31.1576 -105.737 51.2602 -173.079 53.471l34.978 157.399
l111.365 -25.1275c0 -27.3385 22.313 -49.4505 49.451 -49.4505c27.741 0 50.054 22.7147 50.054 50.0538c0 27.3385 -22.313 50.0537 -50.054 50.0537c-19.499 0 -36.184 -11.6593 -44.426 -27.7403l-123.024 27.3385c-6.03 1.6084 -12.262 -2.8143 -13.87 -8.8453
l-38.395 -173.681c-66.739 -2.8141 -126.844 -22.7152 -171.872 -53.873c-12.262 12.8649 -29.55 20.5037 -48.446 20.5037c-70.156 0 -93.072 -94.278 -28.947 -126.24c-2.211 -10.0508 -3.417 -20.5037 -3.417 -31.1577c0 -105.737 119.004 -191.372 265.346 -191.372
c146.946 0 265.95 85.6349 265.95 191.372c0 10.654 -1.206 21.7102 -3.82 31.761c62.92 32.163 39.802 125.637 -29.952 125.637zM594.077 373.235c-36.586 -36.5862 -152.977 -35.9829 -188.155 0c-4.423 4.4219 -12.262 4.4219 -16.685 0
c-5.025 -5.0258 -5.025 -12.8658 0 -17.2883c45.833 -45.8325 175.491 -45.8325 221.524 0c5.026 4.4225 5.026 12.2625 0 17.2883c-4.422 4.4219 -12.262 4.4219 -16.684 0zM609.555 524c-27.339 0 -49.451 -22.3136 -49.451 -50.0539
c0 -27.3393 22.313 -49.4512 49.451 -49.4512c27.741 0 50.054 22.3134 50.054 49.4512c0 27.7403 -22.112 50.0539 -50.054 50.0539z" />
    <glyph glyph-name="rplus_q" unicode="M" vert-adv-y="90" 
d="M824.77 878.295c16.2385 0 29.5246 -13.2861 29.5246 -29.5246v-649.541c0 -16.2385 -13.2861 -29.5246 -29.5246 -29.5246h-649.541c-16.2385 0 -29.5245 13.2861 -29.5245 29.5246v649.541c0 16.2385 13.286 29.5246 29.5245 29.5246h649.541zM824.77 937.344h-649.541
c-48.9 0 -88.5737 -39.6737 -88.5737 -88.5738v-649.541c0 -48.9001 39.6737 -88.5738 88.5737 -88.5738h649.541c48.9001 0 88.5738 39.6737 88.5738 88.5738v649.541c0 48.9001 -39.6737 88.5738 -88.5738 88.5738zM714.053 557.215h-180.838v180.838
c0 12.1789 -9.9646 22.1434 -22.1434 22.1434h-22.1435c-12.1789 0 -22.1434 -9.96455 -22.1434 -22.1434v-180.838h-180.838c-12.1789 0 -22.1434 -9.96454 -22.1434 -22.1434v-22.1434c0 -12.1789 9.9645 -22.1434 22.1434 -22.1434h180.838v-180.838
c0 -12.1789 9.9645 -22.1434 22.1434 -22.1434h22.1435c12.1788 0 22.1434 9.96455 22.1434 22.1434v180.838h180.838c12.1789 0 22.1435 9.96454 22.1435 22.1434v22.1434c0 12.1789 -9.9646 22.1434 -22.1435 22.1434z" />
    <glyph glyph-name="rplus_s" unicode="N" vert-adv-y="90" 
d="M736.197 535.072v-22.1434c0 -12.1789 -9.9645 -22.1435 -22.1434 -22.1435h-180.838v-180.838c0 -12.1789 -9.9645 -22.1434 -22.1434 -22.1434h-22.1434c-12.1789 0 -22.1435 9.96455 -22.1435 22.1434v180.838h-180.838c-12.1789 0 -22.1435 9.9646 -22.1435 22.1435
v22.1434c0 12.1789 9.9646 22.1434 22.1435 22.1434h180.838v180.838c0 12.1789 9.9646 22.1434 22.1435 22.1434h22.1434c12.1789 0 22.1434 -9.9645 22.1434 -22.1434v-180.838h180.838c12.1789 0 22.1434 -9.96451 22.1434 -22.1434zM957.631 524
c0 -252.804 -204.827 -457.631 -457.631 -457.631c-252.804 0 -457.631 204.827 -457.631 457.631c0 252.804 204.827 457.631 457.631 457.631c252.804 0 457.631 -204.827 457.631 -457.631zM898.582 524c0 221.25 -179.546 398.582 -398.582 398.582
c-221.25 0 -398.582 -179.546 -398.582 -398.582c0 -221.25 179.546 -398.582 398.582 -398.582c221.25 0 398.582 179.546 398.582 398.582z" />
    <glyph glyph-name="plus_q" unicode="O" vert-adv-y="90" 
d="M824.77 937.344h-649.541c-48.9001 0 -88.5738 -39.6737 -88.5738 -88.5738v-649.541c0 -48.9001 39.6737 -88.5738 88.5738 -88.5738h649.541c48.9001 0 88.5737 39.6737 88.5737 88.5738v649.541c0 48.9001 -39.6736 88.5738 -88.5737 88.5738zM765.721 472.332
c0 -12.1789 -9.9645 -22.1434 -22.1434 -22.1434h-169.766v-169.766c0 -12.1789 -9.9645 -22.1434 -22.1434 -22.1434h-103.336c-12.1789 0 -22.1435 9.96454 -22.1435 22.1434v169.766h-169.766c-12.1789 0 -22.1434 9.96454 -22.1434 22.1434v103.336
c0 12.1789 9.9645 22.1434 22.1434 22.1434h169.766v169.766c0 12.1789 9.9646 22.1434 22.1435 22.1434h103.336c12.1789 0 22.1434 -9.96454 22.1434 -22.1434v-169.766h169.766c12.1789 0 22.1434 -9.96454 22.1434 -22.1434z" />
    <glyph glyph-name="plus_s" unicode="P" vert-adv-y="90" 
d="M500 981.631c-252.804 0 -457.631 -204.827 -457.631 -457.631c0 -252.804 204.827 -457.631 457.631 -457.631c252.804 0 457.631 204.827 457.631 457.631c0 252.804 -204.827 457.631 -457.631 457.631zM765.721 472.332
c0 -12.1789 -9.9645 -22.1434 -22.1434 -22.1434h-169.766v-169.766c0 -12.1789 -9.9646 -22.1434 -22.1435 -22.1434h-103.336c-12.1789 0 -22.1434 9.96454 -22.1434 22.1434v169.766h-169.766c-12.1789 0 -22.1434 9.96454 -22.1434 22.1434v103.336
c0 12.1789 9.9645 22.1434 22.1434 22.1434h169.766v169.766c0 12.1789 9.9645 22.1434 22.1434 22.1434h103.336c12.1789 0 22.1435 -9.96454 22.1435 -22.1434v-169.766h169.766c12.1789 0 22.1434 -9.96454 22.1434 -22.1434z" />
    <glyph glyph-name="rminus_q" unicode="Q" vert-adv-y="90" 
d="M824.77 878.295c16.2385 0 29.5246 -13.2861 29.5246 -29.5246v-649.541c0 -16.2385 -13.2861 -29.5246 -29.5246 -29.5246h-649.541c-16.2386 0 -29.5246 13.2861 -29.5246 29.5246v649.541c0 16.2385 13.286 29.5246 29.5246 29.5246h649.541zM824.77 937.344h-649.541
c-48.9 0 -88.5738 -39.6737 -88.5738 -88.5738v-649.541c0 -48.9001 39.6737 -88.5738 88.5738 -88.5738h649.541c48.9001 0 88.5738 39.6737 88.5738 88.5738v649.541c0 48.9001 -39.6737 88.5738 -88.5738 88.5738zM714.053 490.785
c12.1789 0 22.1434 9.96454 22.1434 22.1434v22.1434c0 12.1789 -9.96455 22.1434 -22.1434 22.1434h-428.106c-12.1789 0 -22.1434 -9.96454 -22.1434 -22.1434v-22.1434c0 -12.1789 9.96455 -22.1434 22.1434 -22.1434z" />
    <glyph glyph-name="rminus_s" unicode="R" vert-adv-y="90" 
d="M285.947 490.785c-12.1788 0 -22.1434 9.96454 -22.1434 22.1434v22.1434c0 12.1789 9.9646 22.1434 22.1434 22.1434h428.106c12.1789 0 22.1434 -9.96454 22.1434 -22.1434v-22.1434c0 -12.1789 -9.9645 -22.1434 -22.1434 -22.1434zM957.631 524
c0 -252.804 -204.827 -457.631 -457.631 -457.631c-252.804 0 -457.631 204.827 -457.631 457.631s204.827 457.631 457.631 457.631c252.804 0 457.631 -204.827 457.631 -457.631zM898.582 524c0 221.25 -179.546 398.582 -398.582 398.582
c-221.25 0 -398.582 -179.546 -398.582 -398.582c0 -221.25 179.546 -398.582 398.582 -398.582c221.25 0 398.582 179.546 398.582 398.582z" />
    <glyph glyph-name="minus_q" unicode="S" vert-adv-y="90" 
d="M824.77 937.344h-649.541c-48.9001 0 -88.5738 -39.6737 -88.5738 -88.5738v-649.541c0 -48.9001 39.6737 -88.5738 88.5738 -88.5738h649.541c48.9 0 88.5737 39.6737 88.5737 88.5738v649.541c0 48.9001 -39.6737 88.5738 -88.5737 88.5738zM256.422 450.189
c-12.1789 0 -22.1435 9.96454 -22.1435 22.1434v103.336c0 12.1789 9.9646 22.1434 22.1435 22.1434h487.156c12.1789 0 22.1434 -9.96454 22.1434 -22.1434v-103.336c0 -12.1789 -9.9645 -22.1434 -22.1434 -22.1434z" />
    <glyph glyph-name="minus_s" unicode="T" vert-adv-y="90" 
d="M500 981.631c-252.804 0 -457.631 -204.827 -457.631 -457.631c0 -252.804 204.827 -457.631 457.631 -457.631c252.804 0 457.631 204.827 457.631 457.631c0 252.804 -204.827 457.631 -457.631 457.631zM256.422 450.189
c-12.1789 0 -22.1434 9.96454 -22.1434 22.1434v103.336c0 12.1789 9.9645 22.1434 22.1434 22.1434h487.156c12.1789 0 22.1435 -9.96454 22.1435 -22.1434v-103.336c0 -12.1789 -9.9646 -22.1434 -22.1435 -22.1434z" />
    <glyph glyph-name="twitter_uni" vert-adv-y="90" 
d="M910.09 665.007c0.633 -8.903 0.633 -17.8059 0.633 -26.7088c0 -271.539 -206.675 -584.413 -584.414 -584.413c-116.374 0 -224.481 33.7037 -315.416 92.2086c16.534 -1.9075 32.43 -2.5437 49.602 -2.5437c96.024 0 184.417 32.4324 255.005 87.7575
c-90.302 1.908 -165.976 61.0486 -192.049 142.447c12.718 -1.9076 25.437 -3.1794 38.792 -3.1794c18.441 0 36.884 2.5437 54.053 6.9949c-94.117 19.0777 -164.704 101.748 -164.704 201.588v2.5437c27.344 -15.2622 59.14 -24.801 92.844 -26.0728
c-55.325 36.8835 -91.573 99.8399 -91.573 171.063c0 38.1554 10.175 73.1312 27.981 103.655c101.112 -124.641 253.097 -206.039 423.525 -214.942c-3.18 15.2622 -5.088 31.1603 -5.088 47.0584c0 113.194 91.574 205.403 205.404 205.403
c59.141 0 112.559 -24.801 150.077 -64.8642c46.423 8.9029 90.938 26.0728 130.366 49.602c-15.263 -47.6943 -47.695 -87.7574 -90.303 -113.194c41.336 4.4514 81.398 15.898 118.282 31.7962c-27.98 -40.6991 -62.957 -76.9468 -103.02 -106.199z" />
  </font>
</defs>
</svg>
